<?xml version="1.0" standalone="no"?>
<!DOCTYPE svg PUBLIC "-//W3C//DTD SVG 1.1//EN" "http://www.w3.org/Graphics/SVG/1.1/DTD/svg11.dtd" >
<svg xmlns="http://www.w3.org/2000/svg" xmlns:xlink="http://www.w3.org/1999/xlink" version="1.1">
<metadata></metadata>
<defs>
<font id="somersby_header_2019regular" horiz-adv-x="600" >
<font-face units-per-em="1000" ascent="750" descent="-250" />
<missing-glyph horiz-adv-x="220" />
<glyph horiz-adv-x="0" />
<glyph horiz-adv-x="333" />
<glyph unicode=" "  horiz-adv-x="220" />
<glyph unicode="&#x09;" horiz-adv-x="220" />
<glyph unicode="&#xa0;" horiz-adv-x="220" />
<glyph unicode="!" horiz-adv-x="215" d="M179 687q-14 14 -36 14h-115l13 -442q1 -27 14.5 -41.5t35.5 -14.5h81l21 446q0 24 -14 38zM49 16q-25 25 -25 59q0 35 25 59.5t59 24.5q35 0 59.5 -24.5t24.5 -59.5q0 -34 -24.5 -59t-59.5 -25q-34 0 -59 25z" />
<glyph unicode="&#x22;" horiz-adv-x="380" d="M150.5 737q-14.5 13 -36.5 13h-89l10 -229q1 -23 15 -35.5t35 -12.5h63l16 229q1 22 -13.5 35zM341.5 737q-14.5 13 -36.5 13h-89l10 -229q1 -23 15 -35.5t35 -12.5h63l16 229q1 22 -13.5 35z" />
<glyph unicode="#" horiz-adv-x="693" d="M288.5 687q-14.5 15 -37.5 15h-65l-14 -167h-51q-36 0 -57 -26q-20 -25 -20 -56v-24h119l-12 -136h-44q-36 0 -57 -26q-20 -25 -20 -56v-24h113l-9 -131q-1 -26 13 -41t37 -15h65l16 187h133l-9 -131q-1 -26 13 -41t37 -15h65l16 187h52q35 0 57 27q20 23 20 55v24h-120 l11 136h46q35 0 57 27q20 23 20 55v24h-115l8 111q2 26 -12.5 41t-37.5 15h-65l-14 -167h-134l8 111q2 26 -12.5 41zM418 429l-12 -136h-132l11 136h133z" />
<glyph unicode="$" horiz-adv-x="441" d="M379 38.5q-43 -44.5 -131 -51.5v-84q-15 0 -22.5 3t-13.5 11q-12 18 -12 58v11q-96 1 -141 50q-41 42 -41 121v88q28 4 54 4t42 -4q32 -9 42 -26t10 -45q0 -33 7.5 -53t26.5 -26v191l-54 38q-53 37 -76.5 58t-36 53.5t-12.5 88.5q0 176 179 188v85q6 2 14 2 q15 0 24.5 -19.5t9.5 -51.5v-16q77 -6 121 -42t44 -106v-87q-22 -5 -43 -5q-24 0 -46.5 7.5t-37.5 20.5q-15 14 -15 37q0 28 -5.5 44t-17.5 25v-176l101 -71q44 -30 58.5 -72.5t14.5 -112.5q0 -91 -43 -135.5zM167 546q0 -33 8 -51.5t25 -32.5v147q-33 -12 -33 -63z M266.5 224.5q-5.5 16.5 -18.5 28.5v-155q13 9 18.5 28t5.5 55q0 27 -5.5 43.5z" />
<glyph unicode="%" horiz-adv-x="605" d="M180 20q-12 10 -12 28q0 10 5 28l216 606q25 -6 38 -19.5t13 -31.5q0 -9 -5 -24l-216 -607q-27 10 -39 20zM232.5 432q-30.5 -29 -91.5 -29t-91.5 29.5t-30.5 90.5v34q0 62 30.5 91.5t91.5 29.5t91.5 -29.5t30.5 -91.5v-34q0 -62 -30.5 -91zM158.5 602q-5.5 7 -17.5 7 q-22 0 -22 -32v-74q0 -32 22 -32q12 0 17.5 7.5t5.5 24.5v74q0 18 -5.5 25zM555.5 250.5q30.5 -29.5 30.5 -90.5v-34q0 -62 -30.5 -91.5t-91.5 -29.5t-91.5 29.5t-30.5 91.5v34q0 62 30.5 91t91.5 29t91.5 -29.5zM464 212q-12 0 -17.5 -7.5t-5.5 -24.5v-74q0 -18 5.5 -25.5 t17.5 -7.5q22 0 22 33v74q0 32 -22 32z" />
<glyph unicode="&#x26;" horiz-adv-x="565" d="M532 223q11 16 11 30q0 17 -16 28l-32 25l-22 17l-58 -78l-98 169q54 36 82.5 84t28.5 102q0 59 -38 97q-43 43 -118 43t-121 -41q-48 -43 -48 -113q0 -27 13.5 -61.5t45.5 -87.5q-69 -47 -105 -103t-36 -131q0 -97 55 -155q58 -61 155 -61q49 0 86 13.5t72 45.5l25 -39 q15 -23 35 -23q11 0 20 6l75 43l-70 113zM305.5 637.5q13.5 -14.5 13.5 -36.5q0 -25 -9.5 -42t-34.5 -39l-13 -12l-28 47q-8 14 -10.5 24.5t-2.5 26.5q0 20 14 33t36 13q21 0 34.5 -14.5zM209 105.5q-18 9.5 -32 26.5q-30 37 -30 86q0 31 19.5 64t51.5 56l117 -201 q-21 -23 -41 -32t-47 -9q-20 0 -38 9.5z" />
<glyph unicode="'" horiz-adv-x="189" d="M150.5 737q-14.5 13 -36.5 13h-89l10 -229q1 -23 15 -35.5t35 -12.5h63l16 229q1 22 -13.5 35z" />
<glyph unicode="(" horiz-adv-x="271" d="M172 589q27 109 86 225q-3 1 -20 5t-44 4q-29 0 -44 -11q-7 -5 -15.5 -17t-17.5 -27q-45 -78 -74 -187q-35 -125 -35 -237q0 -114 32 -226q27 -100 72 -178q19 -34 33 -44q15 -11 44 -11q37 0 64 9q-59 126 -83.5 228t-24.5 232q0 126 27 235z" />
<glyph unicode=")" horiz-adv-x="271" d="M96.5 122q-24.5 -102 -83.5 -228q27 -9 64 -9q29 0 44 11q14 10 33 44q45 78 72 178q32 112 32 226q0 112 -35 237q-29 109 -74 187q-9 15 -17.5 27t-15.5 17q-15 11 -44 11q-27 0 -44 -4t-20 -5q59 -116 86 -225t27 -235q0 -130 -24.5 -232z" />
<glyph unicode="*" horiz-adv-x="303" d="M274 627.5q9 10.5 9 22.5q0 4 -2 10l-12 34l-82 -32v44q0 18 -10.5 31t-24.5 13h-35v-88l-83 29l-12 -35q-2 -6 -2 -10q0 -12 9.5 -22t23.5 -15l43 -13l-29 -37q-12 -16 -12 -33t12 -26l29 -22l55 79l59 -79l28 22q11 8 11 25q0 19 -13 35l-30 37l44 15q15 5 24 15.5z " />
<glyph unicode="+" horiz-adv-x="557" d="M520.5 305q21.5 25 21.5 57v34h-198v162q0 29 -15 45t-40 16h-76v-223h-121q-34 0 -55.5 -24.5t-21.5 -57.5v-34h198v-167q0 -29 15 -45t40 -16h76v228h121q34 0 55.5 25z" />
<glyph unicode="," horiz-adv-x="222" d="M44 62q-14 -110 -14 -131q0 -26 16.5 -39t42.5 -13h32l59 186q5 16 8 28.5t3 26.5q0 45 -59 45h-74z" />
<glyph unicode="-" horiz-adv-x="322" d="M267.5 321q21.5 25 21.5 57v58h-179q-34 0 -55.5 -24.5t-21.5 -57.5v-58h179q34 0 55.5 25z" />
<glyph unicode="." horiz-adv-x="211" d="M47 16q-25 25 -25 59q0 35 25 59.5t59 24.5q35 0 59.5 -24.5t24.5 -59.5q0 -34 -24.5 -59t-59.5 -25q-34 0 -59 25z" />
<glyph unicode="/" horiz-adv-x="351" d="M33 39q0 -22 15.5 -30.5t44.5 -8.5h51l169 700q5 20 5 30q0 22 -15.5 30.5t-44.5 8.5h-51l-169 -700q-5 -20 -5 -30z" />
<glyph unicode="0" horiz-adv-x="474" d="M88 667.5q-58 -42.5 -58 -126.5v-397q0 -88 54 -122t160 -34q93 0 145.5 41.5t52.5 114.5v405q0 83 -52 122t-147 39q-97 0 -155 -42.5zM237 90q-22 0 -38 14.5t-16 48.5v385q0 29 15.5 47.5t41.5 18.5q28 0 39.5 -17.5t11.5 -48.5v-381q0 -67 -54 -67z" />
<glyph unicode="1" horiz-adv-x="286" d="M237 684q-15 16 -40 16h-98q-9 -45 -28.5 -61.5t-61.5 -16.5v-60q0 -40 48 -40h42v-461q0 -29 15 -45t40 -16h98v639q0 29 -15 45z" />
<glyph unicode="2" horiz-adv-x="449" d="M408.5 25q21.5 25 21.5 57v52l-263 -5l153 173q52 59 81 117t29 118q0 90 -51.5 131.5t-160.5 41.5q-88 0 -139 -36.5t-51 -112.5v-87q22 -5 40 -5q37 0 66 14q36 18 36 51q0 43 12.5 59t40.5 16q29 0 40 -23.5t11 -61.5q0 -53 -22 -93.5t-69 -92.5l-123 -135 q-16 -18 -25.5 -40.5t-9.5 -45.5v-117h328q34 0 55.5 25z" />
<glyph unicode="3" horiz-adv-x="451" d="M224.5 301q19.5 -6 31.5 -20q11 -14 16 -35t5 -57q0 -46 -16.5 -72.5t-39.5 -26.5q-28 0 -40 15.5t-12 58.5q0 26 -15 38q-16 12 -38 19.5t-45 7.5q-22 0 -44 -5v-87q0 -75 51 -112t139 -37q206 0 206 196q0 71 -17 115t-65 67q47 25 62.5 61t15.5 97q0 92 -52.5 139 t-149.5 47q-89 0 -139.5 -37.5t-50.5 -116.5v-81q22 -5 44 -5q21 0 47 8q24 8 37.5 21t13.5 36q0 43 12.5 58.5t40.5 15.5q29 0 40 -21t11 -81q0 -32 -7 -47.5t-31 -27.5q-27 -13 -52.5 -16.5t-60.5 -3.5v-105h51q32 0 51.5 -6z" />
<glyph unicode="4" horiz-adv-x="475" d="M8.5 280.5q-3.5 -17.5 -3.5 -48.5v-77h242v-94q0 -29 15 -45t40 -16h98v155q35 0 57 27q20 23 20 55v43h-77v357q0 63 -51 63h-120l-203 -377q-14 -25 -17.5 -42.5zM247 511v-231h-120z" />
<glyph unicode="5" horiz-adv-x="459" d="M52 354q15 -16 40 -16h126q61 0 61 -66v-97q0 -46 -12 -63.5t-41 -17.5q-30 0 -41.5 20t-11.5 62q0 28 -10 45.5t-42 25.5q-16 4 -42 4t-54 -4v-88q0 -86 49 -128.5t142 -42.5q95 0 141.5 28.5t61.5 88.5t15 177q0 88 -31.5 129t-112.5 42l-124 2v110h169q34 0 55.5 25 t21.5 57v53h-375v-301q0 -29 15 -45z" />
<glyph unicode="6" horiz-adv-x="487" d="M184 400q0 94 7 138q6 38 20 52t42 14q30 0 42 -11t12 -41v-44q0 -29 31 -45.5t68 -16.5q21 0 43 5v74q0 87 -51.5 136t-137.5 49q-110 0 -159 -37.5t-60.5 -108t-11.5 -221.5q0 -149 11 -216.5t57 -103t152 -35.5q79 0 125.5 25.5t66 77t19.5 132.5q0 99 -32 146.5 t-116 47.5q-75 0 -128 -17zM195.5 126.5q-11.5 36.5 -11.5 86.5q0 51 14.5 74.5t46.5 23.5q36 0 47.5 -24.5t11.5 -80.5q0 -54 -14 -85t-48 -31q-35 0 -46.5 36.5z" />
<glyph unicode="7" horiz-adv-x="396" d="M27 587.5q22 -24.5 55 -24.5h148l-158 -563h96q46 0 69.5 18.5t32.5 65.5l121 616h-386v-55q0 -33 22 -57.5z" />
<glyph unicode="8" horiz-adv-x="472" d="M388 670q-52 40 -147 40q-94 0 -151.5 -42t-57.5 -124v-40q0 -49 28.5 -83t73.5 -42v-4q-47 -7 -78 -41t-31 -81v-84q0 -90 54.5 -135.5t151.5 -45.5t156.5 45.5t59.5 131.5v69q0 67 -24 97.5t-86 43.5v4q42 8 72.5 41.5t30.5 76.5v49q0 84 -52 124zM192 432.5 q-10 23.5 -10 71.5q0 52 11 82t43 30q33 0 43.5 -30.5t10.5 -81.5q0 -49 -10 -72t-43 -23q-35 0 -45 23.5zM192.5 124q-10.5 30 -10.5 84t11 84.5t43 30.5q33 0 43.5 -31t10.5 -84q0 -54 -10.5 -84t-42.5 -30q-34 0 -44.5 30z" />
<glyph unicode="9" horiz-adv-x="487" d="M303 298q0 -94 -7 -138q-6 -38 -20 -52t-42 -14q-30 0 -42 11t-12 41v44q0 29 -31 45.5t-68 16.5q-21 0 -43 -5v-74q0 -87 51.5 -136t137.5 -49q110 0 159 37.5t60.5 108t11.5 221.5q0 149 -11 216.5t-57 103t-152 35.5q-79 0 -125.5 -25.5t-66 -77t-19.5 -132.5 q0 -99 32 -146.5t116 -47.5q75 0 128 17zM291.5 571.5q11.5 -36.5 11.5 -86.5q0 -51 -14.5 -74.5t-46.5 -23.5q-36 0 -47.5 24.5t-11.5 80.5q0 54 14 85t48 31q35 0 46.5 -36.5z" />
<glyph unicode=":" horiz-adv-x="269" d="M75 111q-25 25 -25 59q0 35 25 59.5t59 24.5q35 0 59.5 -24.5t24.5 -59.5q0 -34 -24.5 -59t-59.5 -25q-34 0 -59 25zM75 473q-25 25 -25 59q0 35 25 59.5t59 24.5q35 0 59.5 -24.5t24.5 -59.5q0 -34 -24.5 -59t-59.5 -25q-34 0 -59 25z" />
<glyph unicode=";" horiz-adv-x="269" d="M64 62q-14 -110 -14 -131q0 -26 16.5 -39t42.5 -13h32l59 186q5 16 8 28.5t3 26.5q0 45 -59 45h-74zM76 473q-25 25 -25 59q0 35 25 59.5t59 24.5q35 0 59.5 -24.5t24.5 -59.5q0 -34 -24.5 -59t-59.5 -25q-34 0 -59 25z" />
<glyph unicode="&#x3c;" horiz-adv-x="591" d="M501.5 509.5q10.5 19.5 10.5 52.5v79l-410 -191q-16 -9 -26.5 -24t-10.5 -33v-92l447 -207v83q0 33 -10.5 52.5t-35.5 31.5l-272 107l272 110q25 12 35.5 31.5z" />
<glyph unicode="=" horiz-adv-x="488" d="M433 456q20 23 20 55v34h-341q-36 0 -57 -26q-20 -25 -20 -56v-34h341q35 0 57 27zM431.5 212q21.5 25 21.5 57v34h-341q-34 0 -55.5 -24.5t-21.5 -57.5v-34h341q34 0 55.5 25z" />
<glyph unicode="&#x3e;" horiz-adv-x="590" d="M75.5 227q-10.5 -20 -10.5 -54v-79l410 191q17 8 27 23t10 34v92l-447 207v-83q0 -34 10.5 -54.5t35.5 -29.5l272 -107l-272 -110q-25 -10 -35.5 -30z" />
<glyph unicode="?" horiz-adv-x="409" d="M66 677.5q-51 -36.5 -51 -112.5v-87q22 -5 44 -5q39 0 68.5 17t29.5 48q0 43 12.5 59t40.5 16q23 0 37 -15.5t14 -50.5q0 -28 -13 -60q-19 -40 -63 -80q-13 -11 -35 -35q-18 -21 -28 -42t-10 -49v-8q0 -40 14 -55.5t52 -15.5q63 0 86 5v61q0 22 11 42q17 30 61 74 q17 19 34 43q37 55 37 123q0 77 -57 120.5t-145 43.5t-139 -36.5zM136 16q-25 25 -25 59q0 35 25 59.5t59 24.5q35 0 59.5 -24.5t24.5 -59.5q0 -34 -24.5 -59t-59.5 -25q-34 0 -59 25z" />
<glyph unicode="@" horiz-adv-x="800" d="M620 516q0 16 -10.5 22t-32.5 9l-47 6l-9 -54q-25 33 -53 47t-72 14q-38 0 -74.5 -18.5t-64.5 -49.5t-44.5 -71.5t-16.5 -81.5q0 -90 46 -141q40 -46 102 -46q36 0 64.5 11t47.5 32h2q9 -43 70 -43q17 0 41.5 5.5t50.5 16.5q67 29 107 85q50 70 50 173q0 71 -27.5 128.5 t-78.5 98.5q-50 40 -115.5 61.5t-138.5 21.5q-80 0 -152 -28.5t-126 -79.5q-55 -52 -85.5 -121.5t-30.5 -148.5q0 -81 31 -150t87 -120q55 -50 128 -78t154 -28q66 0 122.5 20.5t125.5 61.5q21 13 21 27q0 8 -4 13l-28 47q-17 -13 -45 -29q-52 -28 -92.5 -38.5t-99.5 -10.5 q-60 0 -112.5 19t-90.5 56q-40 37 -61.5 90t-21.5 120q0 59 22 111.5t60 92.5t88.5 61.5t106.5 21.5q123 0 196 -62q37 -31 56.5 -78t19.5 -107q0 -76 -30 -118q-12 -18 -28.5 -27t-32.5 -9q-20 0 -20 19q0 15 5 45l38 188q2 10 2 14zM310 342q0 41 29 73q29 31 72 31 q38 0 58 -22t20 -58q0 -47 -28 -76q-30 -32 -82 -32q-69 0 -69 84z" />
<glyph unicode="A" horiz-adv-x="563" d="M145.5 17.5q21.5 17.5 26.5 44.5l39 177h129l36 -177q5 -27 26.5 -44.5t52.5 -17.5h103l-135 658q-12 58 -37.5 85t-81.5 27h-139l-160 -770h88q31 0 52.5 17.5zM235 357l45 246l40 -246h-85z" />
<glyph unicode="B" horiz-adv-x="517" d="M468 486.5q16 40.5 16 102.5q0 94 -36 137.5t-125 43.5h-289v-770h262q113 0 158 60t45 184q0 80 -19.5 124.5t-73.5 58.5q46 19 62 59.5zM305 631q14 -21 14 -69t-16.5 -69.5t-56.5 -21.5h-44v181h52q37 0 51 -21zM202 115v240h53q43 0 56.5 -25.5t13.5 -81.5 q0 -72 -15 -102.5t-62 -30.5h-46z" />
<glyph unicode="C" horiz-adv-x="503" d="M337 495q27 -18 78 -18q30 0 55 5v134q0 87 -54.5 125.5t-155.5 38.5q-114 0 -165 -56q-39 -43 -52 -112.5t-13 -171.5v-124q0 -89 7 -148.5t28 -98.5q22 -42 67 -62t134 -20q96 0 150.5 42t54.5 133v164q-25 5 -55 5q-51 0 -78 -18t-27 -63q0 -53 -3 -83t-14.5 -48 t-36.5 -18q-35 0 -46 39.5t-11 115.5v186q0 30 2.5 77t6.5 75q4 35 15 53.5t36 18.5q23 0 33 -9t13.5 -31t3.5 -68q0 -45 27 -63z" />
<glyph unicode="D" horiz-adv-x="515" d="M253 0q60 0 102.5 12.5t73.5 41.5q38 35 47.5 113t9.5 218q0 139 -10 218t-47 113q-31 29 -73.5 41.5t-102.5 12.5h-219v-770h219zM247 653q16 0 27.5 -5t22.5 -18q14 -18 18 -69t4 -176q0 -127 -4 -177t-18 -68q-11 -13 -22.5 -18t-27.5 -5h-45v536h45z" />
<glyph unicode="E" horiz-adv-x="416" d="M343.5 382q23.5 27 23.5 63v27h-165v180h119q37 0 60.5 27.5t23.5 63.5v27h-371v-770h280q44 0 68.5 25.5t24.5 68.5v23h-205v238h80q38 0 61.5 27z" />
<glyph unicode="F" horiz-adv-x="414" d="M49 16q15 -16 40 -16h111v355h82q36 0 60 26.5t24 63.5v28h-164v179h118q36 0 60 26.5t24 63.5v28h-370v-709q0 -29 15 -45z" />
<glyph unicode="G" horiz-adv-x="504" d="M315 348.5q6 -6.5 6 -22.5v-170q0 -34 -11 -46t-45 -12q-32 0 -46.5 23.5t-18 60.5t-3.5 109v176q0 82 6.5 124t22.5 58t47 16q21 0 30.5 -5.5t12.5 -19t3 -42.5q0 -32 35.5 -49t77.5 -17q21 0 41 5v79q0 94 -53.5 129t-159.5 35q-90 0 -140.5 -33.5t-70 -94.5 t-19.5 -153v-213q0 -114 15.5 -176.5t61.5 -92.5t139 -30q110 0 168.5 38.5t58.5 127.5v315h-240q0 -54 15 -83.5t46 -29.5q15 0 21 -6.5z" />
<glyph unicode="H" horiz-adv-x="547" d="M202 706q0 29 -15.5 46.5t-39.5 17.5h-113v-709q0 -29 15 -45t40 -16h113v355h143v-294q0 -29 15 -45t40 -16h113v706q0 29 -15.5 46.5t-39.5 17.5h-113v-298h-143v234z" />
<glyph unicode="I" horiz-adv-x="236" d="M187 754q-15 16 -40 16h-113v-708q0 -29 15 -45.5t40 -16.5h113v709q0 29 -15 45z" />
<glyph unicode="J" horiz-adv-x="456" d="M59.5 37q49.5 -50 137.5 -50q81 0 130 14.5t73.5 52.5t24.5 108v547q0 29 -15 45t-40 16h-113v-616q0 -27 -10.5 -39.5t-32.5 -12.5q-25 0 -36 12t-11 48q0 55 -25 78t-74 23q-32 0 -58 -4v-73q0 -99 49.5 -149z" />
<glyph unicode="K" horiz-adv-x="508" d="M337 754q-18 -16 -26 -40l-109 -313v307q0 29 -15 45.5t-40 16.5h-113v-708q0 -29 15 -45.5t40 -16.5h113v396l114 -335q10 -28 27 -44.5t42 -16.5h123l-154 417l137 353h-111q-25 0 -43 -16z" />
<glyph unicode="L" horiz-adv-x="408" d="M187 754q-15 16 -40 16h-113v-770h281q44 0 68.5 25.5t24.5 68.5v22h-206v593q0 29 -15 45z" />
<glyph unicode="M" horiz-adv-x="713" d="M486.5 748q-24.5 -22 -35.5 -67l-88 -346l-89 343q-13 52 -38.5 72t-74.5 20h-127v-709q0 -29 15 -45t40 -16h80v453l95 -365q11 -45 33 -66.5t60 -21.5h47l111 454v-394q0 -28 14 -44t37 -16h113v770h-119q-49 0 -73.5 -22z" />
<glyph unicode="N" horiz-adv-x="595" d="M546 754q-15 16 -40 16h-91v-613l-105 551q-5 27 -27 44.5t-54 17.5h-195v-708q0 -29 15 -45t40 -16h90v610l106 -549q5 -27 27 -44.5t53 -17.5h196v709q0 29 -15 45z" />
<glyph unicode="O" horiz-adv-x="523" d="M408.5 749q48.5 -31 66.5 -95.5t18 -179.5v-181q0 -109 -18 -174t-67 -98.5t-141 -33.5q-100 0 -150 27t-68.5 91t-18.5 188v181q0 109 18.5 174t70 98.5t148.5 33.5q93 0 141.5 -31zM305 123q13 23 16 62t3 115v167q0 83 -3.5 122t-15 58t-38.5 19q-31 0 -45.5 -24 t-18.5 -64t-4 -111v-167q0 -77 3 -115.5t17 -61.5t44 -23q29 0 42 23z" />
<glyph unicode="P" horiz-adv-x="511" d="M295 308q79 6 122.5 33t62 78.5t18.5 138.5q0 71 -13.5 116.5t-49.5 70.5t-103 25h-298v-709q0 -29 15 -45t40 -16h112v305q57 0 94 3zM202 410v244h55q41 0 55.5 -26t14.5 -83q0 -135 -68 -135h-57z" />
<glyph unicode="Q" horiz-adv-x="520" d="M421 735q-56 45 -161 45q-103 0 -160 -45q-70 -55 -70 -177v-350q0 -120 70 -175q58 -46 160 -46h15q10 0 15 1q2 -41 13.5 -65.5t34.5 -37.5q21 -12 54 -16t87 -4v71q0 29 -14.5 44.5t-39.5 15.5h-33v20q98 47 98 192v350q0 121 -69 177zM260 108q-48 0 -48 60v431 q0 59 48 59t48 -59v-431q0 -60 -48 -60z" />
<glyph unicode="R" horiz-adv-x="538" d="M361.5 17q20.5 -17 51.5 -17h120l-136 333q61 25 80.5 79t19.5 145q0 107 -36 160t-126 53h-301v-709q0 -29 15 -45t40 -16h113v405l129 -343q10 -28 30.5 -45zM202 410v243h54q42 0 56 -26.5t14 -81.5q0 -135 -68 -135h-56z" />
<glyph unicode="S" horiz-adv-x="484" d="M398 740q-56 40 -150 40q-218 0 -218 -214q0 -115 59 -156l164 -116q28 -19 39 -39.5t11 -60.5q0 -53 -13.5 -73t-45.5 -20t-44.5 22.5t-12.5 67.5q0 46 -26.5 63.5t-78.5 17.5q-30 0 -55 -5v-95q0 -95 52.5 -140t154.5 -45q90 0 139.5 23t70 73.5t20.5 139.5 q0 68 -24 109t-82 81l-124 84q-23 16 -34 36.5t-11 56.5q0 37 12 58.5t43 21.5q28 0 39 -14.5t11 -56.5q0 -80 101 -80q34 0 59 5v94q0 82 -56 122z" />
<glyph unicode="T" horiz-adv-x="520" d="M191.5 16.5q15.5 -16.5 40.5 -16.5h112v637h88q36 0 57 26t21 64v43h-500v-43q0 -38 21 -64t57 -26h88v-575q0 -29 15.5 -45.5z" />
<glyph unicode="U" horiz-adv-x="494" d="M283.5 124q-11.5 -16 -37.5 -16q-47 0 -47 68v530q0 29 -15.5 46.5t-39.5 17.5h-113v-611q0 -96 54.5 -134t168.5 -38q103 0 156 44.5t53 140.5v534q0 29 -15.5 46.5t-39.5 17.5h-113v-590q0 -40 -11.5 -56z" />
<glyph unicode="V" horiz-adv-x="526" d="M511 676q5 30 5 45q0 26 -17 37.5t-43 11.5h-107l-68 -635l-75 573q-4 27 -25.5 44.5t-53.5 17.5h-117l125 -677q9 -51 36.5 -72t77.5 -21h146z" />
<glyph unicode="W" horiz-adv-x="818" d="M10 770l96 -770h171q33 0 52 18q19 17 24.5 34t10.5 63l48 475l56 -489q5 -47 26 -74t68 -27h158l79 665q3 29 3 42q0 61 -59 61h-101l-46 -622l-61 562q-3 27 -25.5 44.5t-54.5 17.5h-147l-70 -612l-43 537q-3 35 -22.5 55t-66.5 20h-96z" />
<glyph unicode="X" horiz-adv-x="513" d="M329 702l-61 -258l-62 257q-10 38 -29.5 53.5t-55.5 15.5h-111l115 -385l-115 -385h93q66 0 81 68l61 259l62 -259q9 -37 29 -52.5t56 -15.5h111l-107 387l107 383h-93q-66 0 -81 -68z" />
<glyph unicode="Y" horiz-adv-x="491" d="M399 770q-66 0 -81 -67l-61 -261l-62 260q-9 37 -28.5 52.5t-55.5 15.5h-111l159 -475v-234q0 -29 15 -45t40 -16h113v291l164 479h-92z" />
<glyph unicode="Z" horiz-adv-x="427" d="M392.5 26q24.5 26 24.5 63v28h-200l199 653h-397v-28q0 -36 24 -62.5t60 -26.5h99l-197 -653h327q36 0 60.5 26z" />
<glyph unicode="[" horiz-adv-x="284" d="M243 776q-26 29 -63 29h-91q-25 0 -40 -16t-15 -45v-786q0 -29 15 -45t40 -16h91q37 0 63 29q22 23 22 60v5h-107v720h107v5q0 35 -22 60z" />
<glyph unicode="\" horiz-adv-x="375" d="M230.5 17q20.5 -17 52.5 -17h59l-171 708q-6 28 -26.5 45t-52.5 17h-59l171 -708q6 -28 26.5 -45z" />
<glyph unicode="]" horiz-adv-x="283" d="M19 -10v-5q0 -37 22 -60q26 -29 63 -29h91q25 0 40 16t15 45v786q0 29 -15 45t-40 16h-91q-37 0 -63 -29q-22 -25 -22 -60v-5h107v-720h-107z" />
<glyph unicode="_" horiz-adv-x="386" d="M346 -89q20 23 20 55v34h-269q-36 0 -57 -26q-20 -25 -20 -56v-34h269q35 0 57 27z" />
<glyph unicode="`" d="M284 813q11 0 23 5q14 7 28 21l8 8l-104 102q-26 26 -55 26q-41 0 -84 -51l145 -97q20 -14 39 -14z" />
<glyph unicode="a" horiz-adv-x="508" d="M132 16q19 16 24 40l35 160h116l33 -160q5 -24 24 -40t47 -16h93l-122 599q-11 52 -33.5 76.5t-73.5 24.5h-126l-144 -700h80q28 0 47 16zM213 327l40 222l36 -222h-76z" />
<glyph unicode="b" horiz-adv-x="477" d="M428.5 442.5q14.5 36.5 14.5 93.5q0 85 -32.5 124.5t-113.5 39.5h-263v-700h238q103 0 144 54.5t41 167.5q0 73 -18 113.5t-67 53.5q42 17 56.5 53.5zM280.5 574q12.5 -20 12.5 -63q0 -44 -14.5 -63.5t-51.5 -19.5h-40v166h47q34 0 46.5 -20zM187 105v217h48 q39 0 51.5 -23t12.5 -73q0 -65 -14 -93t-56 -28h-42z" />
<glyph unicode="c" horiz-adv-x="463" d="M310.5 449.5q24.5 -16.5 71.5 -16.5q27 0 50 5v122q0 150 -192 150q-104 0 -151 -52q-35 -40 -47 -103t-12 -155v-111q0 -83 6.5 -136.5t25.5 -89.5q20 -38 61 -56.5t122 -18.5q88 0 138 38.5t50 121.5v150q-23 5 -50 5q-47 0 -71.5 -16.5t-24.5 -57.5q0 -73 -8.5 -105 t-41.5 -32q-32 0 -42 36.5t-10 105.5v167q0 32 2.5 73.5t5.5 66.5q5 31 14.5 47.5t32.5 16.5q21 0 30.5 -8.5t12.5 -28t3 -60.5q0 -42 24.5 -58.5z" />
<glyph unicode="d" horiz-adv-x="476" d="M234 0q55 0 93.5 11.5t66.5 37.5q24 22 35.5 66t14 96.5t2.5 139.5q0 123 -9 195.5t-43 104.5q-28 26 -66.5 37.5t-93.5 11.5h-200v-700h200zM228 594q15 0 26 -4.5t20 -16.5q13 -16 16.5 -63t3.5 -159q0 -115 -3.5 -161t-16.5 -62q-10 -12 -20.5 -16.5t-25.5 -4.5h-41 v487h41z" />
<glyph unicode="e" horiz-adv-x="382" d="M351.5 25q21.5 25 21.5 57v26h-186v214h73q34 0 55.5 25t21.5 57v24h-150v166h107q34 0 55.5 24.5t21.5 56.5v25h-337v-700h262q34 0 55.5 25z" />
<glyph unicode="f" horiz-adv-x="379" d="M293 593q34 0 55.5 24.5t21.5 56.5v26h-336v-644q0 -26 14 -41t36 -15h102v322h73q34 0 55.5 25t21.5 57v24h-150v165h107z" />
<glyph unicode="g" horiz-adv-x="470" d="M292.5 319.5q5.5 -6.5 5.5 -20.5v-156q0 -31 -10 -42t-41 -11q-30 0 -43.5 21t-16.5 55.5t-3 99.5v159q0 75 6 113t21 53t43 15t35 -11.5t7 -49.5q0 -29 33 -45t72 -16q20 0 38 5v72q0 86 -49.5 117.5t-147.5 31.5q-83 0 -129.5 -30.5t-64.5 -85.5t-18 -140v-193 q0 -105 14 -161.5t56.5 -84t128.5 -27.5q101 0 155.5 35.5t54.5 116.5v289h-222q0 -49 14 -76t42 -27q14 0 19.5 -6.5z" />
<glyph unicode="h" horiz-adv-x="503" d="M455 684.5q-14 15.5 -36 15.5h-103v-272h-129v215q0 26 -14 41.5t-36 15.5h-103v-644q0 -26 14 -41t36 -15h103v322h129v-266q0 -26 14 -41t36 -15h103v643q0 26 -14 41.5z" />
<glyph unicode="i" horiz-adv-x="221" d="M173 685q-14 15 -36 15h-103v-644q0 -26 14 -41t36 -15h103v644q0 26 -14 41z" />
<glyph unicode="j" horiz-adv-x="410" d="M55 33.5q45 -45.5 130 -45.5q96 0 144.5 39.5t48.5 137.5v480q0 26 -13.5 40.5t-34.5 14.5h-105v-559q0 -47 -35 -47q-23 0 -32.5 10.5t-9.5 43.5q0 50 -22.5 71.5t-65.5 21.5q-28 0 -50 -4v-67q0 -91 45 -136.5z" />
<glyph unicode="k" horiz-adv-x="467" d="M313 685.5q-16 -14.5 -24 -36.5l-102 -284v279q0 26 -14 41t-36 15h-103v-644q0 -26 14 -41t36 -15h103v360l105 -305q8 -24 24 -39.5t39 -15.5h112l-142 379l127 321h-100q-23 0 -39 -14.5z" />
<glyph unicode="l" horiz-adv-x="373" d="M173 685q-14 15 -36 15h-103v-700h262q34 0 55.5 25t21.5 57v23h-186v539q0 26 -14 41z" />
<glyph unicode="m" horiz-adv-x="655" d="M445.5 680q-22.5 -20 -32.5 -59l-80 -317l-79 314q-12 47 -35 64.5t-69 17.5h-116v-644q0 -26 14 -41t36 -15h73v412l87 -331q11 -41 30.5 -61t53.5 -20h43l101 413v-358q0 -27 12.5 -41t33.5 -14h103v700h-108q-45 0 -67.5 -20z" />
<glyph unicode="n" horiz-adv-x="550" d="M48 15q14 -15 36 -15h83v559l97 -502q5 -24 25 -40.5t48 -16.5h179v645q0 26 -14 40.5t-36 14.5h-84v-556l-97 500q-5 24 -25 40t-48 16h-178v-644q0 -26 14 -41z" />
<glyph unicode="o" horiz-adv-x="486" d="M378.5 682q44.5 -28 61 -87t16.5 -165v-162q0 -100 -16.5 -159.5t-61.5 -90t-130 -30.5q-92 0 -138 25t-63 83t-17 172v162q0 100 17 159.5t64.5 90t136.5 30.5q86 0 130.5 -28zM283.5 112.5q12.5 21.5 15 56.5t2.5 105v150q0 75 -3 110.5t-14 52.5t-36 17 q-29 0 -42.5 -21.5t-17 -57.5t-3.5 -101v-150q0 -70 3 -105.5t15.5 -56.5t40.5 -21q27 0 39.5 21.5z" />
<glyph unicode="p" horiz-adv-x="470" d="M272 280q72 7 111.5 31t56 70.5t16.5 125.5q0 99 -32 146t-115 47h-275v-644q0 -26 14 -41t36 -15h103v277q51 0 85 3zM187 372v222h50q38 0 51 -24t13 -74q0 -124 -62 -124h-52z" />
<glyph unicode="q" horiz-adv-x="485" d="M391 668q-54 42 -149 42q-94 0 -147 -42q-65 -50 -65 -162v-314q0 -112 65 -162q55 -43 147 -43q19 0 28 1q2 -38 12.5 -60.5t31.5 -33.5q20 -11 51 -15t80 -4v65q0 26 -14 41t-36 15h-31v18q91 45 91 176v316q0 111 -64 162zM242 99q-44 0 -44 55v389q0 55 44 55 q45 0 45 -55v-389q0 -55 -45 -55z" />
<glyph unicode="r" horiz-adv-x="494" d="M378 0h110l-124 303q56 23 73.5 72t17.5 131q0 98 -33 146t-114 48h-274v-645q0 -26 14 -40.5t36 -14.5h103v368l117 -312q22 -56 74 -56zM187 373v221h49q38 0 50.5 -24t12.5 -75q0 -55 -13.5 -88.5t-47.5 -33.5h-51z" />
<glyph unicode="s" horiz-adv-x="451" d="M369.5 673.5q-51.5 36.5 -138.5 36.5q-201 0 -201 -196q0 -49 15.5 -88.5t58.5 -68.5l131 -88q26 -18 36.5 -36.5t10.5 -55.5q0 -48 -13 -66.5t-42 -18.5t-40.5 20.5t-11.5 62.5t-24.5 58t-72.5 16q-28 0 -51 -5v-87q0 -87 48 -128t143 -41q83 0 128.5 21t64.5 67.5 t19 127.5q0 62 -21.5 97.5t-76.5 72.5l-114 77q-21 14 -31.5 33t-10.5 52q0 73 51 73q26 0 36 -13.5t10 -51.5q0 -73 94 -73q26 0 54 4v86q0 76 -51.5 112.5z" />
<glyph unicode="t" horiz-adv-x="477" d="M176 15q14 -15 36 -15h103v578h81q33 0 52 24t19 59v39h-457v-39q0 -35 19.5 -59t51.5 -24h81v-521q0 -27 14 -42z" />
<glyph unicode="u" horiz-adv-x="458" d="M262 113q-11 -15 -35 -15q-43 0 -43 62v482q0 26 -14 42t-36 16h-103v-555q0 -89 50 -123t154 -34q95 0 143 40.5t48 128.5v485q0 26 -14 42t-36 16h-103v-536q0 -36 -11 -51z" />
<glyph unicode="v" horiz-adv-x="480" d="M467 615q3 21 3 36q0 25 -11.5 37t-41.5 12h-98l-62 -577l-68 520q-3 24 -23 40.5t-49 16.5h-107l114 -615q9 -47 33.5 -66t70.5 -19h133z" />
<glyph unicode="w" horiz-adv-x="744" d="M155 684q-20 16 -50 16h-95l88 -700h156q41 0 57.5 26t21.5 79l44 434l50 -444q5 -46 26.5 -70.5t55.5 -24.5h150l73 606q2 12 2 32q0 36 -14 49t-40 13h-92l-43 -567l-55 510q-3 25 -23.5 41t-49.5 16h-134l-64 -556l-42 499q-2 25 -22 41z" />
<glyph unicode="x" horiz-adv-x="467" d="M323.5 683.5q-16.5 -16.5 -23.5 -44.5l-56 -237l-57 236q-8 35 -24.5 48.5t-47.5 13.5h-105l104 -351l-104 -349h84q33 0 49.5 16.5t23.5 44.5l56 236l57 -235q8 -35 24.5 -48.5t47.5 -13.5h105l-96 351l96 349h-84q-33 0 -49.5 -16.5z" />
<glyph unicode="y" horiz-adv-x="447" d="M159 15q14 -15 36 -15h103v265l149 435h-84q-33 0 -49.5 -16.5t-23.5 -44.5l-56 -237l-57 236q-8 35 -24.5 48.5t-47.5 13.5h-105l145 -432v-212q0 -26 14 -41z" />
<glyph unicode="z" horiz-adv-x="390" d="M359 24.5q21 24.5 21 56.5v26h-181l180 593h-361v-26q0 -33 21 -57t55 -24h91l-180 -593h299q34 0 55 24.5z" />
<glyph unicode="{" horiz-adv-x="345" d="M186 334q-21 15 -59 17v2q37 2 59 18q36 25 36 85v201q0 30 10.5 42t34.5 12h62v5q0 35 -22 60q-26 29 -63 29h-26q-59 0 -88.5 -32t-29.5 -101v-205q0 -43 -13 -56q-10 -11 -29 -11h-48v-96h48q19 0 29 -10q13 -15 13 -57v-207q0 -69 29.5 -101t88.5 -32h26q37 0 63 29 q22 23 22 60v5h-62q-24 0 -34.5 12t-10.5 42v203q0 61 -36 86z" />
<glyph unicode="}" horiz-adv-x="345" d="M112.5 3q-10.5 -12 -34.5 -12h-62v-5q0 -37 22 -60q26 -29 63 -29h26q59 0 88.5 32t29.5 101v207q0 42 13 57q10 10 29 10h48v96h-48q-19 0 -29 11q-13 13 -13 56v205q0 69 -29.5 101t-88.5 32h-26q-37 0 -63 -29q-22 -25 -22 -60v-5h62q24 0 34.5 -12t10.5 -42v-201 q0 -60 36 -85q22 -16 59 -18v-2q-38 -2 -59 -17q-36 -25 -36 -86v-203q0 -30 -10.5 -42z" />
<glyph unicode="~" horiz-adv-x="569" d="M193 289.5q20 -7.5 40 -17t28 -13.5q37 -18 70 -28.5t70 -10.5q46 0 91 39q17 15 27 32.5t10 29.5t-5 24q-12 21 -31 33q-11 -17 -23 -29q-28 -28 -55 -28q-18 0 -38 7.5t-40 17t-28 13.5q-37 18 -70.5 28t-70.5 10q-49 0 -91 -38q-17 -15 -27 -32.5t-10 -29.5 q0 -13 6 -24q12 -22 30 -33q9 14 23 28q29 29 56 29q18 0 38 -7.5z" />
<glyph unicode="&#xa8;" d="M129.5 843.5q19.5 -19.5 47.5 -19.5t47.5 19.5t19.5 47.5t-19.5 47.5t-47.5 19.5t-47.5 -19.5t-19.5 -47.5t19.5 -47.5zM295.5 843.5q19.5 -19.5 47.5 -19.5t47.5 19.5t19.5 47.5t-19.5 47.5t-47.5 19.5t-47.5 -19.5t-19.5 -47.5t19.5 -47.5z" />
<glyph unicode="&#xa9;" horiz-adv-x="483" d="M40 427.5q17 -40.5 47 -70.5t70.5 -47t84.5 -17t84 17t70 47t47 70.5t17 84.5t-17 84t-47 70q-30 31 -70 47.5t-84 16.5t-84.5 -17t-70.5 -47q-30 -31 -47 -70.5t-17 -83.5t17 -84.5zM132 626q20 20 48.5 31.5t61.5 11.5q66 0 109 -43q43 -45 43 -114t-43 -114 q-42 -44 -109 -44q-33 0 -61.5 11.5t-48.5 32.5q-43 45 -43 114t43 114zM273 548.5q9 -5.5 27 -5.5q14 0 19 1v46q0 30 -19 43t-54 13q-39 0 -57 -19q-14 -14 -18.5 -38.5t-4.5 -58.5v-43q0 -62 13 -84q7 -14 22.5 -21t46.5 -7q71 0 71 60v56q-5 1 -19 1q-18 0 -27 -6 t-9 -21q0 -27 -3.5 -39t-15.5 -12t-16 13.5t-4 39.5v64q0 24 4 52q1 11 4.5 17.5t12.5 6.5q12 0 15 -7t3 -30q0 -16 9 -21.5z" />
<glyph unicode="&#xad;" horiz-adv-x="322" d="M267.5 321q21.5 25 21.5 57v58h-179q-34 0 -55.5 -24.5t-21.5 -57.5v-58h179q34 0 55.5 25z" />
<glyph unicode="&#xae;" horiz-adv-x="483" d="M39.5 427.5q16.5 -39.5 47.5 -70.5q31 -30 70.5 -47t83.5 -17t84.5 17t70.5 47q31 31 47.5 70.5t16.5 83.5t-17 84.5t-47 70.5t-70.5 47t-84.5 17t-83.5 -16.5t-70.5 -47.5q-30 -30 -47 -70.5t-17 -84.5t16.5 -83.5zM132 625q42 44 109 44q33 0 61.5 -11.5t48.5 -32.5 q43 -45 43 -114q0 -70 -43 -113q-20 -21 -48.5 -32.5t-61.5 -11.5q-67 0 -109 44q-43 43 -43 113q0 69 43 114zM291 390h39l-44 105q20 8 26 25t6 46q0 33 -11.5 50t-40.5 17h-97v-224q0 -9 5 -14t13 -5h36v128l42 -108q7 -20 26 -20zM223 519v77h18q13 0 17.5 -8.5 t4.5 -25.5q0 -43 -22 -43h-18z" />
<glyph unicode="&#xb4;" d="M107 877.5q-7 -9.5 -7 -26.5q0 -10 4.5 -23.5t9.5 -22.5l124 54q24 10 36 26.5t12 43.5q0 14 -3 26q-7 25 -17 42l-135 -97q-17 -13 -24 -22.5z" />
<glyph unicode="&#xb8;" d="M142 -92q18 2 34 2q23 0 35 -9t12 -25q0 -19 -14 -28t-33 -9q-10 0 -21 3q-20 4 -44 16l-6 -11q-5 -13 -5 -23q0 -18 24.5 -29.5t58.5 -11.5q54 0 89 26q37 26 37 69q0 76 -92 76h-14l20 46h-55l-41 -93q10 0 15 1z" />
<glyph unicode="&#x106;" horiz-adv-x="503" d="M337 495q27 -18 78 -18q30 0 55 5v134q0 87 -54.5 125.5t-155.5 38.5q-114 0 -165 -56q-39 -43 -52 -112.5t-13 -171.5v-124q0 -89 7 -148.5t28 -98.5q22 -42 67 -62t134 -20q96 0 150.5 42t54.5 133v164q-25 5 -55 5q-51 0 -78 -18t-27 -63q0 -53 -3 -83t-14.5 -48 t-36.5 -18q-35 0 -46 39.5t-11 115.5v186q0 30 2.5 77t6.5 75q4 35 15 53.5t36 18.5q23 0 33 -9t13.5 -31t3.5 -68q0 -45 27 -63zM195 877.5q-7 -9.5 -7 -26.5q0 -10 4.5 -23.5t9.5 -22.5l124 54q24 10 36 26.5t12 43.5q0 14 -3 26q-7 25 -17 42l-135 -97q-17 -13 -24 -22.5 z" />
<glyph unicode="&#x107;" horiz-adv-x="463" d="M310.5 449.5q24.5 -16.5 71.5 -16.5q27 0 50 5v122q0 150 -192 150q-104 0 -151 -52q-35 -40 -47 -103t-12 -155v-111q0 -83 6.5 -136.5t25.5 -89.5q20 -38 61 -56.5t122 -18.5q88 0 138 38.5t50 121.5v150q-23 5 -50 5q-47 0 -71.5 -16.5t-24.5 -57.5q0 -73 -8.5 -105 t-41.5 -32q-32 0 -42 36.5t-10 105.5v167q0 32 2.5 73.5t5.5 66.5q5 31 14.5 47.5t32.5 16.5q21 0 30.5 -8.5t12.5 -28t3 -60.5q0 -42 24.5 -58.5zM176 809.5q-7 -9.5 -7 -26.5q0 -10 4.5 -23.5t9.5 -22.5l124 54q24 10 36 26.5t12 43.5q0 14 -3 26q-7 25 -17 42l-135 -97 q-17 -13 -24 -22.5z" />
<glyph unicode="&#x10c;" horiz-adv-x="503" d="M337 495q27 -18 78 -18q30 0 55 5v134q0 87 -54.5 125.5t-155.5 38.5q-114 0 -165 -56q-39 -43 -52 -112.5t-13 -171.5v-124q0 -89 7 -148.5t28 -98.5q22 -42 67 -62t134 -20q96 0 150.5 42t54.5 133v164q-25 5 -55 5q-51 0 -78 -18t-27 -63q0 -53 -3 -83t-14.5 -48 t-36.5 -18q-35 0 -46 39.5t-11 115.5v186q0 30 2.5 77t6.5 75q4 35 15 53.5t36 18.5q23 0 33 -9t13.5 -31t3.5 -68q0 -45 27 -63zM243 805q-21 0 -33.5 8t-30.5 33l-94 129h47q22 0 35.5 -2t22.5 -8q17 -11 36 -44l31 -54l30 54q19 33 36 44q9 6 22.5 8t35.5 2h38l-120 -170 h-56z" />
<glyph unicode="&#x10d;" horiz-adv-x="463" d="M310.5 449.5q24.5 -16.5 71.5 -16.5q27 0 50 5v122q0 150 -192 150q-104 0 -151 -52q-35 -40 -47 -103t-12 -155v-111q0 -83 6.5 -136.5t25.5 -89.5q20 -38 61 -56.5t122 -18.5q88 0 138 38.5t50 121.5v150q-23 5 -50 5q-47 0 -71.5 -16.5t-24.5 -57.5q0 -73 -8.5 -105 t-41.5 -32q-32 0 -42 36.5t-10 105.5v167q0 32 2.5 73.5t5.5 66.5q5 31 14.5 47.5t32.5 16.5q21 0 30.5 -8.5t12.5 -28t3 -60.5q0 -42 24.5 -58.5zM223 744q-21 0 -33.5 8t-30.5 33l-94 129h47q22 0 35.5 -2t22.5 -8q17 -11 36 -44l31 -54l30 54q19 33 36 44q9 6 22.5 8 t35.5 2h38l-120 -170h-56z" />
<glyph unicode="&#x110;" horiz-adv-x="568" d="M525 603q10 -79 10 -218q0 -140 -9.5 -218t-47.5 -113q-31 -29 -73.5 -41.5t-102.5 -12.5h-219v309h-83v32q0 34 22 58t55 24h6v347h219q60 0 102.5 -12.5t73.5 -41.5q37 -34 47 -113zM364 208q4 50 4 177q0 125 -4 176t-18 69q-11 13 -22.5 18t-27.5 5h-45v-230h93v-32 q0 -33 -22 -57.5t-55 -24.5h-16v-192h45q16 0 27.5 5t22.5 18q14 18 18 68z" />
<glyph unicode="&#x111;" horiz-adv-x="528" d="M489 546.5q9 -72.5 9 -195.5q0 -87 -2.5 -139.5t-14 -96.5t-35.5 -66q-28 -26 -66.5 -37.5t-93.5 -11.5h-200v289h-84v32q0 34 22 58t55 24h7v297h200q55 0 93.5 -11.5t66.5 -37.5q34 -32 43 -104.5zM342.5 190q3.5 46 3.5 161q0 112 -3.5 159t-16.5 63q-9 12 -20 16.5 t-26 4.5h-41v-191h82v-32q0 -33 -22 -57.5t-55 -24.5h-5v-182h41q15 0 25.5 4.5t20.5 16.5q13 16 16.5 62z" />
<glyph unicode="&#x160;" horiz-adv-x="484" d="M398 740q-56 40 -150 40q-218 0 -218 -214q0 -115 59 -156l164 -116q28 -19 39 -39.5t11 -60.5q0 -53 -13.5 -73t-45.5 -20t-44.5 22.5t-12.5 67.5q0 46 -26.5 63.5t-78.5 17.5q-30 0 -55 -5v-95q0 -95 52.5 -140t154.5 -45q90 0 139.5 23t70 73.5t20.5 139.5 q0 68 -24 109t-82 81l-124 84q-23 16 -34 36.5t-11 56.5q0 37 12 58.5t43 21.5q28 0 39 -14.5t11 -56.5q0 -80 101 -80q34 0 59 5v94q0 82 -56 122zM233 805q-21 0 -33.5 8t-30.5 33l-94 129h47q22 0 35.5 -2t22.5 -8q17 -11 36 -44l31 -54l30 54q19 33 36 44q9 6 22.5 8 t35.5 2h38l-120 -170h-56z" />
<glyph unicode="&#x161;" horiz-adv-x="451" d="M369.5 673.5q-51.5 36.5 -138.5 36.5q-201 0 -201 -196q0 -49 15.5 -88.5t58.5 -68.5l131 -88q26 -18 36.5 -36.5t10.5 -55.5q0 -48 -13 -66.5t-42 -18.5t-40.5 20.5t-11.5 62.5t-24.5 58t-72.5 16q-28 0 -51 -5v-87q0 -87 48 -128t143 -41q83 0 128.5 21t64.5 67.5 t19 127.5q0 62 -21.5 97.5t-76.5 72.5l-114 77q-21 14 -31.5 33t-10.5 52q0 73 51 73q26 0 36 -13.5t10 -51.5q0 -73 94 -73q26 0 54 4v86q0 76 -51.5 112.5zM214 734q-21 0 -33.5 8t-30.5 33l-94 129h47q22 0 35.5 -2t22.5 -8q17 -11 36 -44l31 -54l30 54q19 33 36 44 q9 6 22.5 8t35.5 2h38l-120 -170h-56z" />
<glyph unicode="&#x17d;" horiz-adv-x="427" d="M392.5 26q24.5 26 24.5 63v28h-200l199 653h-397v-28q0 -36 24 -62.5t60 -26.5h99l-197 -653h327q36 0 60.5 26zM222 805q-21 0 -33.5 8t-30.5 33l-94 129h47q22 0 35.5 -2t22.5 -8q17 -11 36 -44l31 -54l30 54q19 33 36 44q9 6 22.5 8t35.5 2h38l-120 -170h-56z" />
<glyph unicode="&#x17e;" horiz-adv-x="390" d="M359 24.5q21 24.5 21 56.5v26h-181l180 593h-361v-26q0 -33 21 -57t55 -24h91l-180 -593h299q34 0 55 24.5zM206 734q-21 0 -33.5 8t-30.5 33l-94 129h47q22 0 35.5 -2t22.5 -8q17 -11 36 -44l31 -54l30 54q19 33 36 44q9 6 22.5 8t35.5 2h38l-120 -170h-56z" />
<glyph unicode="&#x2c6;" d="M309.5 967q-12.5 8 -33.5 8h-56l-120 -170h37q22 0 35.5 2t22.5 8q17 11 36 44l29 51l29 -51q19 -33 36 -44q9 -6 22.5 -8t35.5 -2h51l-94 129q-18 25 -30.5 33z" />
<glyph unicode="&#x2da;" d="M293 965.5q33 -27.5 33 -73.5q0 -47 -32.5 -74.5t-80.5 -27.5t-80.5 27.5t-32.5 74.5q0 46 33 73.5t80 27.5t80 -27.5zM240 865.5q10 9.5 10 26.5t-10 26.5t-27 9.5t-27 -9.5t-10 -26.5t10 -26.5t27 -9.5t27 9.5z" />
<glyph unicode="&#x2dc;" d="M290.5 900q-9.5 4 -19 10t-13.5 8q-18 11 -32.5 16.5t-31.5 5.5q-34 0 -63 -24q-31 -26 -31 -53q0 -15 8.5 -32t20.5 -25q28 46 58 46q9 0 18.5 -4t19 -10t13.5 -8q18 -11 32.5 -16.5t31.5 -5.5q35 0 64 24q30 25 30 53q0 15 -9 32t-20 25q-11 -20 -26.5 -33t-31.5 -13 q-9 0 -18.5 4z" />
<glyph unicode="&#x2000;" horiz-adv-x="498" />
<glyph unicode="&#x2001;" horiz-adv-x="997" />
<glyph unicode="&#x2002;" horiz-adv-x="498" />
<glyph unicode="&#x2003;" horiz-adv-x="997" />
<glyph unicode="&#x2004;" horiz-adv-x="332" />
<glyph unicode="&#x2005;" horiz-adv-x="249" />
<glyph unicode="&#x2006;" horiz-adv-x="166" />
<glyph unicode="&#x2007;" horiz-adv-x="166" />
<glyph unicode="&#x2008;" horiz-adv-x="124" />
<glyph unicode="&#x2009;" horiz-adv-x="199" />
<glyph unicode="&#x200a;" horiz-adv-x="55" />
<glyph unicode="&#x2010;" horiz-adv-x="322" d="M267.5 321q21.5 25 21.5 57v58h-179q-34 0 -55.5 -24.5t-21.5 -57.5v-58h179q34 0 55.5 25z" />
<glyph unicode="&#x2011;" horiz-adv-x="322" d="M267.5 321q21.5 25 21.5 57v58h-179q-34 0 -55.5 -24.5t-21.5 -57.5v-58h179q34 0 55.5 25z" />
<glyph unicode="&#x2012;" horiz-adv-x="322" d="M267.5 321q21.5 25 21.5 57v58h-179q-34 0 -55.5 -24.5t-21.5 -57.5v-58h179q34 0 55.5 25z" />
<glyph unicode="&#x2013;" horiz-adv-x="570" d="M56.5 411.5q-21.5 -24.5 -21.5 -57.5v-58h423q34 0 55.5 25t21.5 57v58h-423q-34 0 -55.5 -24.5z" />
<glyph unicode="&#x2014;" horiz-adv-x="850" d="M45 410q-20 -25 -20 -56v-58h723q35 0 57 27q20 23 20 55v58h-723q-36 0 -57 -26z" />
<glyph unicode="&#x2018;" horiz-adv-x="223" d="M177 583.5q-19 22.5 -53 22.5q-22 0 -40 -9q1 33 20 55q35 41 100 54q0 15 -11.5 29.5t-35.5 14.5q-28 0 -54 -14t-46 -39q-20 -24 -31 -56.5t-11 -67.5q0 -51 25 -89q27 -37 74 -37q34 0 58 24t24 58q0 32 -19 54.5z" />
<glyph unicode="&#x2019;" horiz-adv-x="224" d="M47 613.5q19 -22.5 53 -22.5q22 0 40 9q-1 -33 -20 -55q-35 -41 -100 -54q0 -15 11.5 -29.5t35.5 -14.5q28 0 54 14t46 39q20 24 31 56.5t11 67.5q0 52 -25 89q-27 37 -74 37q-34 0 -58 -24t-24 -58q0 -32 19 -54.5z" />
<glyph unicode="&#x201a;" horiz-adv-x="224" d="M47 20.5q19 -22.5 53 -22.5q22 0 40 9q-1 -33 -20 -55q-35 -41 -100 -54q0 -15 11.5 -29.5t35.5 -14.5q28 0 54 14t46 39q20 24 31 56.5t11 67.5q0 52 -25 89q-27 37 -74 37q-34 0 -58 -24t-24 -58q0 -32 19 -54.5z" />
<glyph unicode="&#x201c;" horiz-adv-x="461" d="M184 583.5q-19 22.5 -53 22.5q-22 0 -40 -9q1 33 20 55q35 41 100 54q0 15 -11.5 29.5t-35.5 14.5q-28 0 -54 -14t-46 -39q-20 -24 -31 -56.5t-11 -67.5q0 -51 25 -89q27 -37 74 -37q34 0 58 24t24 58q0 32 -19 54.5zM411 583.5q-19 22.5 -53 22.5q-22 0 -40 -9 q1 33 20 55q35 41 100 54q0 15 -11.5 29.5t-35.5 14.5q-28 0 -54 -14t-46 -39q-20 -24 -31 -56.5t-11 -67.5q0 -51 25 -89q27 -37 74 -37q34 0 58 24t24 58q0 32 -19 54.5z" />
<glyph unicode="&#x201d;" horiz-adv-x="461" d="M277 613.5q19 -22.5 53 -22.5q22 0 40 9q-1 -33 -20 -55q-35 -41 -100 -54q0 -15 11.5 -29.5t35.5 -14.5q28 0 54 14t46 39q20 24 31 56.5t11 67.5q0 52 -25 89q-27 37 -74 37q-34 0 -58 -24t-24 -58q0 -32 19 -54.5zM50 613.5q19 -22.5 53 -22.5q22 0 40 9 q-1 -33 -20 -55q-35 -41 -100 -54q0 -15 11.5 -29.5t35.5 -14.5q28 0 54 14t46 39q20 24 31 56.5t11 67.5q0 52 -25 89q-27 37 -74 37q-34 0 -58 -24t-24 -58q0 -32 19 -54.5z" />
<glyph unicode="&#x201e;" horiz-adv-x="461" d="M277 20.5q19 -22.5 53 -22.5q22 0 40 9q-1 -33 -20 -55q-35 -41 -100 -54q0 -15 11.5 -29.5t35.5 -14.5q28 0 54 14t46 39q20 24 31 56.5t11 67.5q0 52 -25 89q-27 37 -74 37q-34 0 -58 -24t-24 -58q0 -32 19 -54.5zM50 20.5q19 -22.5 53 -22.5q22 0 40 9q-1 -33 -20 -55 q-35 -41 -100 -54q0 -15 11.5 -29.5t35.5 -14.5q28 0 54 14t46 39q20 24 31 56.5t11 67.5q0 52 -25 89q-27 37 -74 37q-34 0 -58 -24t-24 -58q0 -32 19 -54.5z" />
<glyph unicode="&#x2026;" horiz-adv-x="632" d="M592.5 128.5q-19.5 19.5 -56.5 22.5q0 6 5 18t5 13q0 7 -12 7q-8 0 -13 -11.5t-5 -26.5q-35 0 -55.5 -19.5t-20.5 -50.5q0 -36 22.5 -61.5t55.5 -25.5q45 0 69.5 22t24.5 60q0 33 -19.5 52.5zM172.5 128.5q-19.5 19.5 -56.5 22.5q0 6 5 18t5 13q0 7 -12 7q-8 0 -13 -11.5 t-5 -26.5q-35 0 -55.5 -19.5t-20.5 -50.5q0 -36 22.5 -61.5t55.5 -25.5q45 0 69.5 22t24.5 60q0 33 -19.5 52.5zM382.5 128.5q-19.5 19.5 -56.5 22.5q0 6 5 18t5 13q0 7 -12 7q-8 0 -13 -11.5t-5 -26.5q-35 0 -55.5 -19.5t-20.5 -50.5q0 -36 22.5 -61.5t55.5 -25.5 q45 0 69.5 22t24.5 60q0 33 -19.5 52.5z" />
<glyph unicode="&#x202f;" horiz-adv-x="199" />
<glyph unicode="&#x205f;" horiz-adv-x="249" />
<glyph unicode="&#x2122;" horiz-adv-x="693" d="M127.5 314q8.5 -9 21.5 -9h58v353h49q27 0 38 15t11 37v11h-280v-11q0 -22 11 -37t38 -15h45v-320q0 -15 8.5 -24zM556.5 709.5q-13.5 -11.5 -19.5 -36.5l-48 -187l-48 186q-7 28 -21 38.5t-41 10.5h-69v-384q0 -15 8.5 -24t21.5 -9h44v246l51 -198q6 -24 18 -36t33 -12 h25l60 246v-213q0 -16 8 -24.5t20 -8.5h61v417h-64q-26 0 -39.5 -11.5z" />
<glyph unicode="&#x25fc;" horiz-adv-x="700" d="M0 700h700v-700h-700v700z" />
</font>
</defs>
</svg>
